antika oldala

üdvözöllek antika oldalán!!

Az oldal teljes tartalmának megtekintéséhez regisztrációra van szükség.

Az oldalon minden teljesen ingyenes

zene, film, játék, stb, , ,


Tomb Raider 2018.CAM.HUN

Share

Admin
Admin

Posts : 45
Join date : 2018. Feb. 13.

Tomb Raider 2018.CAM.HUN

Témanyitás by Admin on Vas. Szept. 23, 2018 11:01 pm

[You must be registered and logged in to see this image.]



[You must be registered and logged in to see this image.]
Tomb Raider
magyarul beszélő, amerikai akciófilm, 118 perc, 2018
[You must be registered and logged in to see this image.]


rendező:
Roar Uthaug
forgatókönyvíró:
Geneva Robertson-Dworet
operatőr:
George Richmond
zene:
Junkie XL
producer:
Gary Barber Graham King
vágó:
Stuart Baird
[You must be registered and logged in to see this image.]

Lara Croft
Alicia Vikander
Lord Richard Croft
Dominic West
Mathias Vogel
Walton Goggins
Lu Ren
Daniel Wu
Ana Miller
Kristin Scott Thomas
Sophie
Hannah John-Kamen
[You must be registered and logged in to see this image.]
Format : MPEG-4
Format profile : Base Media
Codec ID : isom (isom/iso2/avc1/mp41)
File size : 595 MiB
Duration : 1 h 52 min
Overall bit rate : 743 kb/s
Writing application : Lavf57.83.100

Video
ID : 1
Format : AVC
Format/Info : Advanced Video Codec
Format profile : High@L3.1
Format settings, CABAC : Yes
Format settings, ReFrames : 5 frames
Codec ID : avc1
Codec ID/Info : Advanced Video Coding
Duration : 1 h 52 min
Bit rate : 640 kb/s
Width : 720 pixels
Height : 404 pixels
Display aspect ratio : 16:9
Frame rate mode : Constant
Frame rate : 30.000 FPS
Color space : YUV
Chroma subsampling : 4:2:0
Bit depth : 8 bits
Scan type : Progressive
Bits/(Pixel*Frame) : 0.073
Stream size : 512 MiB (86%)
Writing library : x264 core 148 r2643 5c65704

Audio
ID : 2
Format : AAC
Format/Info : Advanced Audio Codec
Format profile : LC
Codec ID : 40
Duration : 1 h 52 min
Duration_LastFrame : -12 ms
Bit rate mode : Constant
Bit rate : 96.0 kb/s
Channel(s) : 2 channels
Channel(s)_Original : 1 channel
Channel positions : Front: C
Sampling rate : 44.1 kHz
Frame rate : 43.066 FPS (1024 spf)
Compression mode : Lossy
Stream size : 77.9 MiB (13%)
Default : Yes
Alternate group : 1
[You must be registered and logged in to see this image.]
A rettenthetetlen, független fiatal nő, Lara Croft kislány volt még, mikor édesapja, a különc kalandor nyomtalanul eltűnt. Most, 21 évesen, csak él bele a világba; East London nem túl bizalomgerjesztő utcáit rója biciklis futárként, miközben alig telik neki lakbérre, és alig ér oda időben a főiskolai előadásokra. Mindenáron a saját lábán kíván megállni, így nem hajlandó átvenni apja cégbirodalmának irányítását, ahogy az is szent meggyőződése, hogy Lord Croft még él. Hét év eltelte és a tényekkel való folytonos szembesítés dacára Lara elindul, hogy egyszer s mindenkorra megoldja az apja halálát övező rejtélyt.
Hátrahagyva addigi életét, Lara apja utolsó ismert tartózkodási helyét veszi célba: egy mesebeli sírkamrát, ami egy legendás szigeten, valahol Japán mellett található. Küldetésével nagy fába vágja a fejszéjét; már a sziget megközelítése is veszedelmes kalandot ígér. A tét nagyobb nem is lehetne Lara számára, aki a kedvezőtlen esélyekre fittyet hányva, éles eszére és tántoríthatatlanságára támaszkodva feszegeti tűrőképessége határait, útban az ismeretlen felé.
[You must be registered and logged in to see this image.]


[You must be registered and logged in to see this image.]

[You must be registered and logged in to see this image.]

Kód:
https://data.hu/get/11120210/Tomb_Raider_2018.CAM.HUN.z01?pid=3213894265
https://data.hu/get/11120212/Tomb_Raider_2018.CAM.HUN.z02?pid=3213894265
https://data.hu/get/11120213/Tomb_Raider_2018.CAM.HUN.z03?pid=3213894265
https://data.hu/get/11120214/Tomb_Raider_2018.CAM.HUN.z04?pid=3213894265
https://data.hu/get/11120215/Tomb_Raider_2018.CAM.HUN.z05?pid=3213894265
https://data.hu/get/11120216/Tomb_Raider_2018.CAM.HUN.z06?pid=3213894265
https://data.hu/get/11120217/Tomb_Raider_2018.CAM.HUN.zip?pid=3213894265

    Pontos idő: Pént. Nov. 16, 2018 6:35 am