antika oldala

üdvözöllek antika oldalán!!

Az oldal teljes tartalmának megtekintéséhez regisztrációra van szükség.

Az oldalon minden teljesen ingyenes

zene, film, játék, stb, , ,


Ready Player One 2018.HDCAM.HUN

Share

Admin
Admin

Posts : 45
Join date : 2018. Feb. 13.

Ready Player One 2018.HDCAM.HUN

Témanyitás by Admin on Vas. Szept. 23, 2018 11:09 pm

[You must be registered and logged in to see this image.]

[You must be registered and logged in to see this image.]
Ready Player One
magyarul beszélő, amerikai sci-fi akciófilm, 140 perc, 2018
[You must be registered and logged in to see this image.]
rendező:
Steven Spielberg
forgatókönyvíró:
Zak Penn Ernest Cline
operatőr:
Janusz Kaminski
zene:
Alan Silvestri
producer:
Donald De Line Dan Farah Steven Spielberg
vágó:
Michael Kahn
[You must be registered and logged in to see this image.]
Wade Owen Watts / Parzival
Tye Sheridan
Ogden Morrow
Simon Pegg
i-R0k
T.J. Miller
James Donovan Halliday
Mark Rylance
Samantha Evelyn Cook / Art3mis
Olivia Cooke
F'Nale Zandor
Hannah John-Kamen
Nolan Sorrento
Ben Mendelsohn
[You must be registered and logged in to see this image.]
Format : MPEG-4
Format profile : Base Media
Codec ID : isom (isom/iso2/avc1/mp41)
File size : 1.03 GiB
Duration : 2 h 7 min
Overall bit rate : 1 158 kb/s
Writing application : Lavf57.83.100

Video
ID : 1
Format : AVC
Format/Info : Advanced Video Codec
Format profile : High@L3.1
Format settings, CABAC : Yes
Format settings, ReFrames : 5 frames
Codec ID : avc1
Codec ID/Info : Advanced Video Coding
Duration : 2 h 7 min
Bit rate : 1 024 kb/s
Width : 1 024 pixels
Height : 576 pixels
Display aspect ratio : 16:9
Frame rate mode : Constant
Frame rate : 29.970 (30000/1001) FPS
Color space : YUV
Chroma subsampling : 4:2:0
Bit depth : 8 bits
Scan type : Progressive
Bits/(Pixel*Frame) : 0.058
Stream size : 932 MiB (88%)
Writing library : x264 core 148 r2643 5c65704
Audio
ID : 2
Format : AAC
Format/Info : Advanced Audio Codec
Format profile : LC
Codec ID : 40
Duration : 2 h 7 min
Duration_LastFrame : -6 ms
Bit rate mode : Constant
Bit rate : 128 kb/s
Channel(s) : 2 channels
Channel positions : Front: L R
Sampling rate : 44.1 kHz
Frame rate : 43.066 FPS (1024 spf)
Compression mode : Lossy
Stream size : 117 MiB (11%)
Default : Yes
Alternate group : 1
[You must be registered and logged in to see this image.]
A valóságban nincs semmi jó. Szerencsére nem is kell törődnünk vele. 2044-ben már mindenkit beszippant a világot átfogó virtuális játék, az OASIS, amelyben mindenki a maga választotta avatárjával vehet részt: és nem szembesül semmi rosszal, ami a játékon kívül várná.
Amikor az OASIS-t feltaláló és a céget alapító James Halliday meghal, a végrendeletéből kiderül, hogy elrejtett néhány titkot a rendszerben. Aki ezekre rátalál, mesés gazdagságot nyerhet.
Wade 18 éves, és az egész életét a játékban töltötte. Nekivág a kalandnak, és nem törődik vele, hogy az élete a tét. De nemcsak az, amelyiket a játék számára használ... hanem a valódi is.
[You must be registered and logged in to see this image.]

[You must be registered and logged in to see this image.]

[You must be registered and logged in to see this image.]

Kód:
https://data.hu/get/11146026/Ready_Player_One__2018.HDCAM.HUN.z01?pid=3213894265
https://data.hu/get/11146027/Ready_Player_One__2018.HDCAM.HUN.z02?pid=3213894265
https://data.hu/get/11146028/Ready_Player_One__2018.HDCAM.HUN.z03?pid=3213894265
https://data.hu/get/11146029/Ready_Player_One__2018.HDCAM.HUN.z04?pid=3213894265
https://data.hu/get/11146030/Ready_Player_One__2018.HDCAM.HUN.z05?pid=3213894265
https://data.hu/get/11146031/Ready_Player_One__2018.HDCAM.HUN.z06?pid=3213894265
https://data.hu/get/11146032/Ready_Player_One__2018.HDCAM.HUN.z07?pid=3213894265
https://data.hu/get/11146033/Ready_Player_One__2018.HDCAM.HUN.z08?pid=3213894265
https://data.hu/get/11146034/Ready_Player_One__2018.HDCAM.HUN.z09?pid=3213894265
https://data.hu/get/11146035/Ready_Player_One__2018.HDCAM.HUN.z10?pid=3213894265
https://data.hu/get/11146036/Ready_Player_One__2018.HDCAM.HUN.zip?pid=3213894265

    Pontos idő: Pént. Nov. 16, 2018 6:35 am