antika oldala

üdvözöllek antika oldalán!!

Az oldal teljes tartalmának megtekintéséhez regisztrációra van szükség.

Az oldalon minden teljesen ingyenes

zene, film, játék, stb, , ,


Hellboy 2019 .TS.HUN

avatar
Admin
Admin

Posts : 55
Join date : 2018. Feb. 13.

Hellboy 2019 .TS.HUN Empty Hellboy 2019 .TS.HUN

Témanyitás by Admin on Vas. Ápr. 14, 2019 10:14 pm

[You must be registered and logged in to see this link.]


[You must be registered and logged in to see this link.]

Hellboy
/Hellboy: Rise of the Blood Queen/
amerikai akciófilm, fantasztikus kalandfilm, 120 perc, 2019
[You must be registered and logged in to see this link.]


   rendező:
   Neil Marshall
   szinkronhang:
   Varga Rókus Lamboni Anna Dányi Krisztián Ruttkay Laura Mihályi Győző Borbiczky Ferenc Rátonyi Hajni Fazekas István Makay Andrea Sarádi Zsolt
   forgatókönyvíró:
   Andrew Cosby
   író:
   Mike Mignola

[You must be registered and logged in to see this link.]

Milla Jovovich (Nimue / The Blood Queen), Michael Heath (Butler), Ian McShane (Professor Broom), Nadya Keranova (Sister), Terry Randal (Priest), Christopher Mata (Referee), David Harbour (Hellboy), Atanas Srebrev (Agent Madison), Brian Gleeson (Merlin), Penelope Mitchell (Ganeida), Mario de la Rosa (Esteban Ruiz / Camazotz), Mark Stanley (Arthur), Dawn Sherrer (Agent Strode), Ana Tabakova (Sister), Maria Tepavicharova (Sister (as Mariya Tepavicharova))

[You must be registered and logged in to see this link.]

Format                         : MPEG-4
Format profile                 : Base Media
Codec ID                       : isom (isom/iso2/avc1/mp41)
File size                      : 428 MiB
Duration                       : 1h 48mn
Overall bit rate               : 554 Kbps
Movie name                     : Hellboy.2019.TS.Hungarian.MD.x264.-.MovieAvenger
Performer                      : WinX HD Video Converter Deluxe
Writing application            : Lavf57.83.100

Video
ID                             : 1
Format                         : AVC
Format/Info                    : Advanced Video Codec
Format profile                 : Main@L4.1
Format settings, CABAC         : Yes
Format settings, ReFrames      : 2 frames
Codec ID                       : avc1
Codec ID/Info                  : Advanced Video Coding
Duration                       : 1h 48mn
Bit rate                       : 449 Kbps
Width                          : 720 pixels
Height                         : 392 pixels
Display aspect ratio           : 1.85:1
Frame rate mode                : Constant
Frame rate                     : 30.000 fps
Color space                    : YUV
Chroma subsampling             : 4:2:0
Bit depth                      : 8 bits
Scan type                      : Progressive
Bits/(Pixel*Frame)             : 0.053
Stream size                    : 347 MiB (81%)

Audio
ID                             : 2
Format                         : AAC
Format/Info                    : Advanced Audio Codec
Format profile                 : LC
Codec ID                       : 40
Duration                       : 1h 47mn
Bit rate mode                  : Constant
Bit rate                       : 96.0 Kbps
Channel(s)                     : 2 channels
Channel positions              : Front: L R
Sampling rate                  : 44.1 KHz
Frame rate                     : 43.066 fps (1024 spf)
Compression mode               : Lossy
Stream size                    : 74.5 MiB (17%)
Default                        : Yes
Alternate group                : 1

[You must be registered and logged in to see this link.]

Közeleg az apokalipszis… Hellboy (David Harbour), a démoni jófiú hamarosan kemény fába vágja termetes jobb karját. A pokoli teremtménynek bár nagy tapasztalata van az alvilági lények kiiktatásában, - hisz évek óta a természetfeletti szörnyek ellen harcol Bruttenholm professzor (Ian McShane) irányítása alatt -, arra ő maga sem számít, hogy egy olyan brutális erővel kell megküzdenie, ami számára is érdekes fordulatot hozhat. Az ősi varázslónő, Nimue (Milla Jovovich) bosszút forral az emberiség ellen, s miközben egyesíti a boszorkányokból, alvilági szörnyekből álló vérszomjas seregét, arra is marad ideje, hogy azon ügyködjön, miként is hozhatja elő a jófej pokolfajzat legsötétebb oldalát. Vajon Hellboy beteljesíti a végzetét, és Anung Un Ramaként, a démoni fenevad képében ő maga igázza le a Földet? Vagy képes lesz szembenézni a sorsával, és belevaló szuperhősként megmenti a világot?

MINTAKÉPEK A FILMBŐL
[You must be registered and logged in to see this link.]
[You must be registered and logged in to see this link.]
[You must be registered and logged in to see this link.]
[You must be registered and logged in to see this link.]


Kód:
https://data.hu/get/11784955/Hellboy_2019.TS.Hungarian.z01?pid=3213894265
https://data.hu/get/11784956/Hellboy_2019.TS.Hungarian.z02?pid=3213894265
https://data.hu/get/11784957/Hellboy_2019.TS.Hungarian.z03?pid=3213894265
https://data.hu/get/11784958/Hellboy_2019.TS.Hungarian.z04?pid=3213894265
https://data.hu/get/11784959/Hellboy_2019.TS.Hungarian.zip?pid=3213894265
avatar
ákos

Posts : 11
Join date : 2018. Sep. 29.

Hellboy 2019 .TS.HUN Empty Re: Hellboy 2019 .TS.HUN

Témanyitás by ákos on Hétf. Ápr. 22, 2019 9:59 am

Köszönöm szépen!
avatar
gyenesbau

Posts : 4
Join date : 2019. Jul. 27.

Hellboy 2019 .TS.HUN Empty Re: Hellboy 2019 .TS.HUN

Témanyitás by gyenesbau on Szomb. Júl. 27, 2019 8:40 am

köszi
avatar
gyenesbau

Posts : 4
Join date : 2019. Jul. 27.

Hellboy 2019 .TS.HUN Empty Re: Hellboy 2019 .TS.HUN

Témanyitás by gyenesbau on Szomb. Júl. 27, 2019 8:42 am

hogyan tölthetem le?
avatar
gyenesbau

Posts : 4
Join date : 2019. Jul. 27.

Hellboy 2019 .TS.HUN Empty Re: Hellboy 2019 .TS.HUN

Témanyitás by gyenesbau on Szomb. Júl. 27, 2019 8:48 am

köszi
avatar
gyenesbau

Posts : 4
Join date : 2019. Jul. 27.

Hellboy 2019 .TS.HUN Empty Re: Hellboy 2019 .TS.HUN

Témanyitás by gyenesbau on Szomb. Júl. 27, 2019 8:49 am

Hogy a faszba tudom letölteni?

Ajánlott tartalom

Hellboy 2019 .TS.HUN Empty Re: Hellboy 2019 .TS.HUN

Témanyitás by Ajánlott tartalom


    Pontos idő: Szer. Aug. 21, 2019 3:34 pm