antika oldala

üdvözöllek antika oldalán!!

Az oldal teljes tartalmának megtekintéséhez regisztrációra van szükség.

Az oldalon minden teljesen ingyenes

zene, film, játék, stb, , ,


Nyúl Péter 2018.CAM.HUN

Share

Admin
Admin

Posts : 45
Join date : 2018. Feb. 13.

Nyúl Péter 2018.CAM.HUN

Témanyitás by Admin on Hétf. Szept. 24, 2018 7:38 am

[You must be registered and logged in to see this image.]

[You must be registered and logged in to see this image.]
Nyúl Péter
/Peter Rabbit/
magyarul beszélő, ausztrál-amerikai-angol családi animációs film, 95 perc, 2018
[You must be registered and logged in to see this image.]


rendező:
Will Gluck
forgatókönyvíró:
Will Gluck Rob Lieber
operatőr:
Peter Menzies Jr.
zene:
Dominic Lewis
producer:
Will Gluck Zareh Nalbandian
vágó:
Christian Gazal
[You must be registered and logged in to see this image.]

Szereplők
Nyúl Péter hangja
James Corden
Flopsy / Narrátor hangja
Margot Robbie
Mopsy hangja
Elizabeth Debicki
Mr. Jeremy Fisher / Mr. Thomas McGregor
Domhnall Gleeson
Rose Byrne Daisy Ridley
[You must be registered and logged in to see this image.]
Format : MPEG-4
Format profile : Base Media
Codec ID : isom (isom/iso2/avc1/mp41)
File size : 703 MiB
Duration : 1 h 25 min
Overall bit rate : 1 154 kb/s
Writing application : Lavf57.83.100

Video
ID : 1
Format : AVC
Format/Info : Advanced Video Codec
Format profile : High@L3.1
Format settings, CABAC : Yes
Format settings, ReFrames : 5 frames
Codec ID : avc1
Codec ID/Info : Advanced Video Coding
Duration : 1 h 25 min
Bit rate : 1 024 kb/s
Width : 1 024 pixels
Height : 576 pixels
Display aspect ratio : 16:9
Frame rate mode : Constant
Frame rate : 29.970 (29970/1000) FPS
Color space : YUV
Chroma subsampling : 4:2:0
Bit depth : 8 bits
Scan type : Progressive
Bits/(Pixel*Frame) : 0.058
Stream size : 622 MiB (89%)
Writing library : x264 core 148 r2643 5c65704


Audio
ID : 2
Format : AAC
Format/Info : Advanced Audio Codec
Format profile : LC
Codec ID : 40
Duration : 1 h 25 min
Bit rate mode : Constant
Bit rate : 125 kb/s
Channel(s) : 2 channels
Channel positions : Front: L R
Sampling rate : 44.1 kHz
Frame rate : 43.066 FPS (1024 spf)
Compression mode : Lossy
Stream size : 76.1 MiB (11%)
Default : Yes
Alternate group : 1
[You must be registered and logged in to see this image.]
Nyúl Péter nagy szájánál csak a füle nagyobb. Egyébként jó kedélyű, laza, és a kék dzsekijéről biztosan felismered. Meg arról, hogy nem hord nadrágot.
Szerinte ő az ember legrégibb barátja, és ezért joga van néha megebédelni a kiskertben, megmelegedni a konyhában és bulit szervezni a haverjainak nappaliban.
A helybéli tanyagazdának azonban erről egészen más elképzelései vannak.
[You must be registered and logged in to see this image.]

[You must be registered and logged in to see this image.]

[You must be registered and logged in to see this image.]

[You must be registered and logged in to see this image.]

[You must be registered and logged in to see this image.]

Kód:
https://data.hu/get/11114922/Nyul_Peter_2018.CAM.HUN.z01?pid=3213894265
https://data.hu/get/11114923/Nyul_Peter_2018.CAM.HUN.z02?pid=3213894265
https://data.hu/get/11114925/Nyul_Peter_2018.CAM.HUN.z03?pid=3213894265
https://data.hu/get/11114926/Nyul_Peter_2018.CAM.HUN.z04?pid=3213894265
https://data.hu/get/11114928/Nyul_Peter_2018.CAM.HUN.z05?pid=3213894265
https://data.hu/get/11114929/Nyul_Peter_2018.CAM.HUN.z06?pid=3213894265
https://data.hu/get/11114931/Nyul_Peter_2018.CAM.HUN.z07?pid=3213894265
https://data.hu/get/11114932/Nyul_Peter_2018.CAM.HUN.zip?pid=3213894265

    Pontos idő: Pént. Nov. 16, 2018 7:21 am