antika oldala

üdvözöllek antika oldalán!!

Az oldal teljes tartalmának megtekintéséhez regisztrációra van szükség.

Az oldalon minden teljesen ingyenes

zene, film, játék, stb, , ,


Horror Park 2018.CAM.HUN

Share

Admin
Admin

Posts : 45
Join date : 2018. Feb. 13.

Horror Park 2018.CAM.HUN

Témanyitás by Admin on Hétf. Okt. 22, 2018 12:57 pm

[You must be registered and logged in to see this image.]



[You must be registered and logged in to see this image.]
Horror Park /Hell Fest/
amerikai horror, 83 perc, 2018
[You must be registered and logged in to see this image.]
Gregory Plotkin
forgatókönyvíró:
Seth M. Sherwood Blair Butler
producer:
Gale Anne Hurd Tucker Tooley Christopher H. Warner
executive producer:
Ben Roberts
zene:
Bear McCreary
vágó:
David Egan Gregory Plotkin
[You must be registered and logged in to see this image.]
Tony Todd (), Michael Tourek (Security Guard), nm2349949 (Cop), Reign Edwards (Brooke), Bex Taylor-Klaus (Taylor), nm4918316 (Shaved Ice Vendor), Matt Mercurio (Asher), Amy Forsyth (Natalie), nm5234677 (Hellfest Halloween Park Goer), nm5688481 (Quinn), nm6285328 (Little Girl), Courtney Dietz (Britney), Roby Attal (Gavin), nm9488334 (Ride Attendant (as John J. Laws)), nm9614683 (Britney's Friend)
[You must be registered and logged in to see this image.]
Format : MPEG-4
Format profile : Base Media
Codec ID : isom (isom/iso2/avc1/mp41)
File size : 439 MiB
Duration : 1 h 22 min
Overall bit rate : 741 kb/s
Writing application : Lavf57.83.100

Video
ID : 1
Format : AVC
Format/Info : Advanced Video Codec
Format profile : High@L3.1
Format settings, CABAC : Yes
Format settings, ReFrames : 5 frames
Codec ID : avc1
Codec ID/Info : Advanced Video Coding
Duration : 1 h 22 min
Bit rate : 640 kb/s
Width : 720 pixels
Height : 364 pixels
Display aspect ratio : 1.978
Frame rate mode : Constant
Frame rate : 29.970 (30000/1001) FPS
Color space : YUV
Chroma subsampling : 4:2:0
Bit depth : 8 bits
Scan type : Progressive
Bits/(Pixel*Frame) : 0.081
Stream size : 377 MiB (86%)
Writing library : x264 core 148 r2795 aaa9aa8

Audio
ID : 2
Format : AAC
Format/Info : Advanced Audio Codec
Format profile : LC
Codec ID : 40
Duration : 1 h 22 min
Duration_LastFrame : -12 ms
Bit rate mode : Constant
Bit rate : 96.0 kb/s
Channel(s) : 2 channels
Channel(s)_Original : 1 channel
Channel positions : Front: C
Sampling rate : 44.1 kHz
Frame rate : 43.066 FPS (1024 spf)
Compression mode : Lossy
Stream size : 57.5 MiB (13%)
Default : Yes
Alternate group : 1

[You must be registered and logged in to see this image.]
Egy maszkos sorozatgyilkos saját játszóteret csinál egy horror tematikájú vidámparkból: terrorizálni kezd egy baráti társaságot, míg a többi vendég azt hiszi, ez az egész csak a műsor része. A főiskolás Natalie (Forsyth) meglátogatja gyerekkori legjobb barátnőjét, Brooke-ot (Edwards) és szobatársát, Taylort (Taylor-Klaus). A lányok az év bármely másik napján valószínűleg bulizni vagy iszogatni mennének a pasijukkal, de most Helloween van, vagyis a többséghez hasonlóan ők is a Horror Parkba tartanak – az országot járó, rémisztő játékokat felvonultató vurstli ugyanis nemrég érkezett meg a városba. Minden évben több ezren látogatnak el a Horror Parkba, hogy részt vegyenek a hátborzongató attrakciók karneválján. Ám egyvalaki számára a Horror Park nem vidámpark, hanem vadászmező. Lehetőség arra, hogy nyílt színen lecsapjon a szájtátva közlekedő emberekre, akiket túlságosan is leköt a szörnyű szórakozás ahhoz, hogy felfigyeljenek a szemük előtt lejátszódó borzalmakra. Miközben a holttestek száma és a közönség rettegéssel vegyes izgatottsága egyre csak nő, a maszkos gyilkos célba veszi Natalie-t, Brooke-ot, Taylort és pasijaikat, akik mindent megtesznek, hogy valahogy túléljék az éjszakát.
[You must be registered and logged in to see this image.]

[You must be registered and logged in to see this image.]

[You must be registered and logged in to see this image.]

[You must be registered and logged in to see this image.]

[You must be registered and logged in to see this image.]

Kód:
https://data.hu/get/11470761/Horror_Park_2018.CAM.HUN.z01?pid=3213894265
https://data.hu/get/11470763/Horror_Park_2018.CAM.HUN.z02?pid=3213894265
https://data.hu/get/11470764/Horror_Park_2018.CAM.HUN.z03?pid=3213894265
https://data.hu/get/11470765/Horror_Park_2018.CAM.HUN.z04?pid=3213894265
https://data.hu/get/11470766/Horror_Park_2018.CAM.HUN.zip?pid=3213894265



    Pontos idő: Pént. Nov. 16, 2018 6:16 am