antika oldala

üdvözöllek antika oldalán!!

Az oldal teljes tartalmának megtekintéséhez regisztrációra van szükség.

Az oldalon minden teljesen ingyenes

zene, film, játék, stb, , ,


Pelyhes - Kalandra fel! 2018.CAM.HUN

Share

Admin
Admin

Posts : 45
Join date : 2018. Feb. 13.

Pelyhes - Kalandra fel! 2018.CAM.HUN

Témanyitás by Admin on Hétf. Okt. 22, 2018 1:10 pm

[You must be registered and logged in to see this image.]



[You must be registered and logged in to see this image.]

Pelyhes - Kalandra fel!
/Ploey - You Never Fly Alone/

magyarul beszélő, izlandi-belga animációs kalandfilm, 83 perc, 2018
[You must be registered and logged in to see this image.]

Rendező: Árni Ásgeirsson
Forgatókönyv: Fridrik Erlingsson
Zene: Atli Örvarsson
[You must be registered and logged in to see this image.]

Jamie Oram
Harriet Perring
Ian Stuart Robertson
Richard Cottan
Thorunn Erna Clausen
Thomas Arnold
[You must be registered and logged in to see this image.]

Format : MPEG-4
Format profile : Base Media
Codec ID : isom (isom/iso2/avc1/mp41)
File size : 341 MiB
Duration : 1 h 22 min
Overall bit rate : 578 kb/s
Writing application : Lavf57.83.100

Video
ID : 1
Format : AVC
Format/Info : Advanced Video Codec
Format profile : High@L3.1
Format settings, CABAC : Yes
Format settings, ReFrames : 5 frames
Codec ID : avc1
Codec ID/Info : Advanced Video Coding
Duration : 1 h 22 min
Source duration : 3 min 46 s
Bit rate : 512 kb/s
Width : 720 pixels
Height : 304 pixels
Display aspect ratio : 2.35:1
Frame rate mode : Constant
Frame rate : 24.000 FPS
Color space : YUV
Chroma subsampling : 4:2:0
Bit depth : 8 bits
Scan type : Progressive
Bits/(Pixel*Frame) : 0.097
Stream size : 300 MiB (88%)
Source stream size : 300 MiB (88%)
Writing library : x264 core 148 r2643 5c65704

Audio
ID : 2
Format : AAC
Format/Info : Advanced Audio Codec
Format profile : LC
Codec ID : 40
Duration : 1 h 22 min
Bit rate mode : Constant
Bit rate : 64.4 kb/s
Channel(s) : 2 channels
Channel(s)_Original : 1 channel
Channel positions : Front: C
Sampling rate : 44.1 kHz
Frame rate : 43.066 FPS (1024 spf)
Compression mode : Lossy
Stream size : 38.0 MiB (11%)
Title : AudioJoiner181022000907
Default : Yes
Alternate group : 1

[You must be registered and logged in to see this image.]

Közeleg a hideg tél, ilyenkor a legtöbb madár délnek indul, hogy egy melegebb vidéken vészelje át a zord évszakot. Így tesz a kis Pelyhes családja is, ám Ő még túl pici a repüléshez, és egy véletlen folytán lemarad az indulásról. Mikor megérkezik a fagy, a kismadárnak minden bátorságára szüksége lesz, hogy megküzdjön a barátságtalan időjárással és megtalálja a családját. Szerencséjére a kalandban segítségére lesz megannyi új barát.
[You must be registered and logged in to see this image.]

[You must be registered and logged in to see this image.]

[You must be registered and logged in to see this image.]

[You must be registered and logged in to see this image.]

[You must be registered and logged in to see this image.]



Kód:
https://data.hu/get/11484310/Pelyhes_-_Kalandra_fel_2018.CAM.HUN.z01?pid=3213894265
https://data.hu/get/11484311/Pelyhes_-_Kalandra_fel_2018.CAM.HUN.z02?pid=3213894265
https://data.hu/get/11484312/Pelyhes_-_Kalandra_fel_2018.CAM.HUN.z03?pid=3213894265
https://data.hu/get/11484313/Pelyhes_-_Kalandra_fel_2018.CAM.HUN.zip?pid=3213894265

    Pontos idő: Pént. Nov. 16, 2018 7:18 am