antika oldala

üdvözöllek antika oldalán!!

Az oldal teljes tartalmának megtekintéséhez regisztrációra van szükség.

Az oldalon minden teljesen ingyenes

zene, film, játék, stb, , ,


Átejtve 2018.BDRip.HUN

Share

Admin
Admin

Posts : 45
Join date : 2018. Feb. 13.

Átejtve 2018.BDRip.HUN

Témanyitás by Admin on Szomb. Nov. 10, 2018 10:05 pm

[You must be registered and logged in to see this image.]


[You must be registered and logged in to see this image.]
Átejtve /Overboard/
amerikai romantikus vígjáték , 112 perc, 2018
[You must be registered and logged in to see this image.]


producer:
Eugenio Derbez Ben Odell
zene:
Lyle Workman
operatőr:
Michael Barrett
rendező:
Rob Greenberg
forgatókönyvíró:
Leslie Dixon Bob Fisher Rob Greenberg
[You must be registered and logged in to see this image.]

Kate
Anna Faris
Leonardo
Eugenio Derbez
Theresa
Eva Longoria Parker
Colin
John Hannah
Grace
Swoosie Kurtz
Jason
Josh Segarra
Amanda
Emily Maddison
Olivia
Alyvia Alyn Lind
Emily
Hannah Nordberg
[You must be registered and logged in to see this image.]


Format : MPEG-4
Format profile : Base Media
Codec ID : isom (isom/iso2/avc1/mp41)
File size : 463 MiB
Duration : 1 h 52 min
Overall bit rate : 577 kb/s
Movie name : BaKeR-Rls
Writing application : Lavf57.83.100

Video
ID : 1
Format : AVC
Format/Info : Advanced Video Codec
Format profile : High@L3.1
Format settings, CABAC : Yes
Format settings, ReFrames : 5 frames
Codec ID : avc1
Codec ID/Info : Advanced Video Coding
Duration : 1 h 52 min
Bit rate : 512 kb/s
Width : 720 pixels
Height : 302 pixels
Display aspect ratio : 2.40:1
Frame rate mode : Constant
Frame rate : 23.976 (24000/1001) FPS
Color space : YUV
Chroma subsampling : 4:2:0
Bit depth : 8 bits
Scan type : Progressive
Bits/(Pixel*Frame) : 0.098
Stream size : 408 MiB (88%)
Writing library : x264 core 148 r2795 aaa9aa8


Audio
ID : 2
Format : AAC
Format/Info : Advanced Audio Codec
Format profile : LC
Codec ID : 40
Duration : 1 h 52 min
Bit rate mode : Constant
Bit rate : 64.8 kb/s
Channel(s) : 2 channels
Channel positions : Front: L R
Sampling rate : 48.0 kHz
Frame rate : 46.875 FPS (1024 spf)
Compression mode : Lossy
Stream size : 52.1 MiB (11%)
Language : Hungarian
Default : Yes
Alternate group : 1

[You must be registered and logged in to see this image.]

Leonardo, az önelégült, gazdag playboy, Mexikó legtehetősebb családjának sarja felveszi a gyermekeit egyedül nevelő Kate-et, a munkásosztály gyöngyét luxusjachtjának takarítására. Röviddel azután, hogy igazságtalanul kirúgja a nőt és még a fizetségét is megtagadja, Leonardo átesik a hajókorláton a heves partizás közepette, majd Oregon partjainál tér magához – emlékezetkieséssel. Kate felbukkan a kórházban, és hogy elégtételt vegyen, elhiteti Leonardóval, hogy ő a férje, s így a férfi – életében először – dolgozni kényszerül. Kezdetben szánalmasan alkalmatlannak bizonyul bármire, ám idővel felveszi a munka ritmusát, és “családja” elismerését is kivívja. Valódi, milliárdos rokonai azonban bármikor rábukkanhatnak és emlékezete is akármikor visszatérhet…

[You must be registered and logged in to see this image.]

Kód:
https://data.hu/get/11513806/Atejtve_2018.BDRip.HUN.z01?pid=3213894265
https://data.hu/get/11513807/Atejtve_2018.BDRip.HUN.z02?pid=3213894265
https://data.hu/get/11513808/Atejtve_2018.BDRip.HUN.z03?pid=3213894265
https://data.hu/get/11513809/Atejtve_2018.BDRip.HUN.z04?pid=3213894265
https://data.hu/get/11513810/Atejtve_2018.BDRip.HUN.zip?pid=3213894265


    Pontos idő: Pént. Nov. 16, 2018 6:59 am