antika oldala

üdvözöllek antika oldalán!!

Az oldal teljes tartalmának megtekintéséhez regisztrációra van szükség.

Az oldalon minden teljesen ingyenes

zene, film, játék, stb, , ,


Tűzgyűrű Lázadás 2018.HDCAM.HUN

Share

Admin
Admin

Posts : 45
Join date : 2018. Feb. 13.

Tűzgyűrű Lázadás 2018.HDCAM.HUN

Témanyitás by Admin on Vas. Szept. 23, 2018 11:11 pm

[You must be registered and logged in to see this image.]

[You must be registered and logged in to see this image.]
Tűzgyűrű: Lázadás
/Pacific Rim: Uprising/
magyarul beszélő, amerikai kalandfilm, 111 perc, 2018
[You must be registered and logged in to see this image.]
rendező:
Steven S. DeKnight
forgatókönyvíró:
Emily Carmichael Steven S. DeKnight T.S. Nowlin
operatőr:
Daniel Mindel
zene:
John Paesano
producer:
John Boyega Guillermo Del Toro Mary Parent Cale Boyter Jon Jashni Femi Oguns Thomas Tull
vágó:
Zach Staenberg
[You must be registered and logged in to see this image.]

Jake Pentecost
John Boyega Szatory Dávid
Nate Lambert
Scott Eastwood Fenyő Iván
Shao Liwen
Tian Jing Sípos Eszter
Amara Namani
Cailee Spaeny Koller Virág
Mako Mori
Rinko Kikuchi Kovács Patrícia
Dr. Hermann Gottlieb
Burn Gorman Vida Péter
Jules Reyes
Adria Arjona Dobó Enikő
Dr. Newton Geiszler
Charlie Day Rajkai Zoltán
Quan marsall
Jin Zhang Mészáros András
[You must be registered and logged in to see this image.]
Format : MPEG-4
Format profile : Base Media
Codec ID : isom (isom/iso2/avc1/mp41)
File size : 834 MiB
Duration : 1 h 40 min
Overall bit rate : 1 160 kb/s
Writing application : Lavf57.83.100

Video
ID : 1
Format : AVC
Format/Info : Advanced Video Codec
Format profile : High@L3.1
Format settings, CABAC : Yes
Format settings, ReFrames : 5 frames
Codec ID : avc1
Codec ID/Info : Advanced Video Coding
Duration : 1 h 40 min
Bit rate : 1 024 kb/s
Width : 968 pixels
Height : 544 pixels
Display aspect ratio : 16:9
Frame rate mode : Constant
Frame rate : 29.970 (30000/1001) FPS
Color space : YUV
Chroma subsampling : 4:2:0
Bit depth : 8 bits
Scan type : Progressive
Bits/(Pixel*Frame) : 0.065
Stream size : 738 MiB (89%)
Writing library : x264 core 148 r2643 5c65704

Audio
ID : 2
Format : AAC
Format/Info : Advanced Audio Codec
Format profile : LC
Codec ID : 40
Duration : 1 h 40 min
Duration_LastFrame : -6 ms
Bit rate mode : Constant
Bit rate : 126 kb/s
Channel(s) : 2 channels
Channel(s)_Original : 1 channel
Channel positions : Front: C
Sampling rate : 44.1 kHz
Frame rate : 43.066 FPS (1024 spf)
Compression mode : Lossy
Stream size : 90.5 MiB (11%)
Default : Yes
Alternate group : 1
[You must be registered and logged in to see this image.]
John Boyega (Star Wars: Ébredő erő) áll a TŰZGYŰRŰ: LÁZADÁS élén, amely a 2013-as, nagyszabású, szörnyes és robotos látványorgia méltó folytatása, melyben egy új nemzedék szeretne a világ legnagyobb hőseivé válni, hogy felvegyék a harcot a legnagyobb szörnyekkel, melyek valaha a bolygónk felszínén jártak.
[You must be registered and logged in to see this image.]

[You must be registered and logged in to see this image.]

[You must be registered and logged in to see this image.]


Kód:
https://data.hu/get/11153665/Tuzgyuru_Lazadas_2018.HDCAM.HUN.z01?pid=3213894265
https://data.hu/get/11153666/Tuzgyuru_Lazadas_2018.HDCAM.HUN.z02?pid=3213894265
https://data.hu/get/11153668/Tuzgyuru_Lazadas_2018.HDCAM.HUN.z03?pid=3213894265
https://data.hu/get/11153669/Tuzgyuru_Lazadas_2018.HDCAM.HUN.z04?pid=3213894265
https://data.hu/get/11153670/Tuzgyuru_Lazadas_2018.HDCAM.HUN.z05?pid=3213894265
https://data.hu/get/11153671/Tuzgyuru_Lazadas_2018.HDCAM.HUN.z06?pid=3213894265
https://data.hu/get/11153672/Tuzgyuru_Lazadas_2018.HDCAM.HUN.z07?pid=3213894265
https://data.hu/get/11153673/Tuzgyuru_Lazadas_2018.HDCAM.HUN.z08?pid=3213894265
https://data.hu/get/11153674/Tuzgyuru_Lazadas_2018.HDCAM.HUN.zip?pid=3213894265

    Pontos idő: Pént. Nov. 16, 2018 7:17 am