antika oldala

üdvözöllek antika oldalán!!

Az oldal teljes tartalmának megtekintéséhez regisztrációra van szükség.

Az oldalon minden teljesen ingyenes

zene, film, játék, stb, , ,


Húzós éjszaka az El Royale-ban 2018.HDCAM.HUN

Share

Admin
Admin

Posts : 45
Join date : 2018. Feb. 13.

Húzós éjszaka az El Royale-ban 2018.HDCAM.HUN

Témanyitás by Admin on Hétf. Okt. 22, 2018 1:04 pm

[You must be registered and logged in to see this image.]



[You must be registered and logged in to see this image.]

Húzós éjszaka az El Royale-ban
/Bad Times at the El Royale/
magyarul beszélő, amerikai krimi, thriller, 2018
[You must be registered and logged in to see this image.]

Rendező: Drew Goddard
Író: Drew Goddard
Zene: Michael Giacchino
[You must be registered and logged in to see this image.]

Chris Hemsworth
Jon Hamm
Dakota Johnson
Jeff Bridges
Cailee Spaeny
Nick Offerman
Lewis Pullman
[You must be registered and logged in to see this image.]
Format : MPEG-4
Format profile : Base Media
Codec ID : isom (isom/iso2/avc1/mp41)
File size : 1.19 GiB
Duration : 2 h 12 min
Overall bit rate : 1 291 kb/s
Writing application : Lavf57.83.100

Video
ID : 1
Format : AVC
Format/Info : Advanced Video Codec
Format profile : High@L3.1
Format settings, CABAC : Yes
Format settings, ReFrames : 5 frames
Codec ID : avc1
Codec ID/Info : Advanced Video Coding
Duration : 2 h 12 min
Bit rate : 1 152 kb/s
Width : 1 280 pixels
Height : 536 pixels
Display aspect ratio : 2.40:1
Frame rate mode : Constant
Frame rate : 29.970 (29970/1000) FPS
Color space : YUV
Chroma subsampling : 4:2:0
Bit depth : 8 bits
Scan type : Progressive
Bits/(Pixel*Frame) : 0.056
Stream size : 1.07 GiB (89%)
Writing library : x264 core 148 r2795 aaa9aa8

Audio
ID : 2
Format : AAC
Format/Info : Advanced Audio Codec
Format profile : LC
Codec ID : 40
Duration : 2 h 12 min
Bit rate mode : Constant
Bit rate : 129 kb/s
Channel(s) : 2 channels
Channel(s)_Original : 1 channel
Channel positions : Front: C
Sampling rate : 44.1 kHz
Frame rate : 43.066 FPS (1024 spf)
Compression mode : Lossy
Stream size : 122 MiB (10%)
Default : Yes
Alternate group : 1

[You must be registered and logged in to see this image.]

Hét titkokkal terhelt idegen találkozik a kaliforniai Tahoe-tó mellett az El Royale-ban, egy sötét múltú, lelakott hotelben. Egy végzetes éjszaka folyamán mindenkinek jut egy utolsó esély a megváltására… mielőtt végleg elszabadul a pokol.
[You must be registered and logged in to see this image.]

[You must be registered and logged in to see this image.]

[You must be registered and logged in to see this image.]

[You must be registered and logged in to see this image.]

[You must be registered and logged in to see this image.]

Kód:
https://data.hu/get/11483951/Huzos_ejszaka_az_El_Royale-ban_2018.HDCAM.HUN.z01?pid=3213894265
https://data.hu/get/11483952/Huzos_ejszaka_az_El_Royale-ban_2018.HDCAM.HUN.z02?pid=3213894265
https://data.hu/get/11483953/Huzos_ejszaka_az_El_Royale-ban_2018.HDCAM.HUN.z03?pid=3213894265
https://data.hu/get/11483954/Huzos_ejszaka_az_El_Royale-ban_2018.HDCAM.HUN.z04?pid=3213894265
https://data.hu/get/11483955/Huzos_ejszaka_az_El_Royale-ban_2018.HDCAM.HUN.z05?pid=3213894265
https://data.hu/get/11483956/Huzos_ejszaka_az_El_Royale-ban_2018.HDCAM.HUN.z06?pid=3213894265
https://data.hu/get/11483957/Huzos_ejszaka_az_El_Royale-ban_2018.HDCAM.HUN.z07?pid=3213894265
https://data.hu/get/11483958/Huzos_ejszaka_az_El_Royale-ban_2018.HDCAM.HUN.z08?pid=3213894265
https://data.hu/get/11483959/Huzos_ejszaka_az_El_Royale-ban_2018.HDCAM.HUN.z09?pid=3213894265
https://data.hu/get/11483960/Huzos_ejszaka_az_El_Royale-ban_2018.HDCAM.HUN.z10?pid=3213894265
https://data.hu/get/11483961/Huzos_ejszaka_az_El_Royale-ban_2018.HDCAM.HUN.z11?pid=3213894265
https://data.hu/get/11483962/Huzos_ejszaka_az_El_Royale-ban_2018.HDCAM.HUN.z12?pid=3213894265
https://data.hu/get/11483963/Huzos_ejszaka_az_El_Royale-ban_2018.HDCAM.HUN.zip?pid=3213894265




    Pontos idő: Pént. Nov. 16, 2018 6:59 am